¡Hola, Invitado! Regístrate

Calificación:
  • 0 voto(s) - 0 Media
  • 1
  • 2
  • 3
  • 4
  • 5
Assassin's Creed [La Película] [2016] [Subtitulada] [AVI] [Torrent]
#1

Sinopsis:

Gracias a una revolucionaria tecnología que desbloquea los recuerdos genéticos, Callum Lynch (Michael Fassbender) vive las aventuras de su ancestro, Aguilar, en la España del siglo XV. Callum descubre que es el descendiente de una misteriosa sociedad secreta, los Assassins, y que posee increíbles conocimientos y habilidades que le permitirán enfrentarse a la poderosa y opresora organización de los Templarios en el presente.

[Imagen: assasin_1.jpg]

Información de la película:

Título: Assassin's Creed

Título Original: Assassin's Creed

Género: Acción, Aventura, Ciencia Ficción

Nacionalidad: USA

Año: 2016

Director: Justin Kurzel

Guión: Michael Lesslie

Reparto: Marion Cotillard, Michael Fassbender, Essie Davis, Jeremy Irons, Brendan Gleeson, Charlotte Rampling, Michael Kenneth Williams, Ariane Labed, Denis Ménochet, Callum Turner, Octavia Selena Alexandru, Brian Gleeson, Matias Varela, Flor Ferraco, Coco König

[Imagen: assasin_2.jpg]

Información del archivo:

Format : AVI
Format/Info : Audio Video Interleave
File size : 1.32 GiB
Duration : 1 h 40 min
Overall bit rate : 1 881 kb/s

Video
ID : 0
Format : MPEG-4 Visual
Format profile : Advanced [email protected]
Format settings, BVOP : 2
Format settings, QPel : No
Format settings, GMC : No warppoints
Format settings, Matrix : Default (H.263)
Codec ID : DIVX
Codec ID/Info : Project Mayo
Codec ID/Hint : DivX 4
Duration : 1 h 40 min
Bit rate : 1 675 kb/s
Width : 720 pixels
Height : 304 pixels
Display aspect ratio : 2.35:1
Frame rate : 29.970 (30000/1001) FPS
Color space : YUV
Chroma subsampling : 4:2:0
Bit depth : 8 bits
Scan type : Progressive
Compression mode : Lossy
Bits/(Pixel*Frame) : 0.255
Stream size : 1.18 GiB (89%)
Writing library : XviD 64

Audio
ID : 1
Format : MPEG Audio
Format version : Version 1
Format profile : Layer 3
Codec ID : 55
Codec ID/Hint : MP3
Duration : 1 h 18 min
Source duration : 2 h 31 min
Bit rate mode : Constant
Bit rate : 192 kb/s
Channel(s) : 2 channels
Sampling rate : 44.1 kHz
Compression mode : Lossy
Stream size : 138 MiB (10%)
Alignment : Aligned on interleaves
Language : English



Película [Torrent] [1.32 GB]

Subtitulos en español


Responder
Agradecido por:



Posibles temas similares...
Tema Autor Respuestas Vistas Último mensaje
  Beauty and the Beast [2017] [Subtitulada] [VOB] [Torrent] Paul Martin 0 57 03-22-2017, 01:44 AM
Último mensaje: Paul Martin
  Película Kong: La Isla Calavera [2017] [Subtitulada] [MKV] [Torrent] Paul Martin 0 222 03-14-2017, 04:19 PM
Último mensaje: Paul Martin
  Película Logan [2017] [Subtitulada] [AVI] [AAC] [Torrent] Paul Martin 0 359 03-08-2017, 06:28 PM
Último mensaje: Paul Martin
  Batman La Lego Película [2017] [Subtitulada] [MP4] [Torrent] Paul Martin 0 116 02-26-2017, 05:01 AM
Último mensaje: Paul Martin
  Pelicula John Wick: Pacto de sangre [2017] [Subtitulada] [MKV] [Torrent] Paul Martin 0 203 02-23-2017, 10:27 PM
Último mensaje: Paul Martin

Salto de foro:


banner publicidad
HTML Comment Box is loading comments...