¡Hola, Invitado! Regístrate

Calificación:
  • 0 voto(s) - 0 Media
  • 1
  • 2
  • 3
  • 4
  • 5
Película Capitán América: Civil War [2016] [Audio Latino] [MP4] [Torrent]
#1

Sinopsis:

Secuela de Capitán América: el primer vengador y Capitán América: el soldado de invierno. 


[Imagen: civilwartorrent2___wIhVoaiknc.jpg]


Capitán America: Civil War, de Marvel, empieza donde lo dejó Vengadores: La Era de Ultrón ya que Steve Rogers lidera el nuevo equipo de los Vengadores en su incesante tarea de proteger a la humanidad. Pero, después de que otro incidente internacional en el que se ven envueltos los Vengadores produzca daños colaterales, la presión política obliga a poner en marcha un sistema para depurar responsabilidades y a crear un organismo rector que determine cuándo hay que recurrir a los servicios del equipo. El nuevo statu quo divide a los Vengadores en dos bandos, uno liderado por Steve Rogers y su deseo de mantener la libertad de actuación de los Vengadores a la hora de defender a la humanidad sin interferencias, y otro liderado por Tony Stark y su sorprendente decisión de apoyar los planes y organismos del Gobierno, mientras intentan proteger al mundo de un nuevo malvado.

Información de la película:

Título: Capitán América: Civil War

Título Original: Captain America: Civil War

Género: Acción, Thriller, Ciencia Ficción

Nacionalidad: USA

Año: 2016

Director: Anthony Russo, Joe Russo

Guión: Christopher Markus, Stephen McFeely

Reparto: Scarlett Johansson, Elizabeth Olsen, Chris Evans, Robert Downey Jr., Paul Rudd, Tom Holland, Martin Freeman, Sebastian Stan, Jeremy Renner, Marisa Tomei, Paul Bettany, Emily VanCamp, Leslie Bibb, Anthony Mackie, Frank Grillo


[Imagen: capitanamerica2016torrent___dAwaF9brJv.jpg]


Información del archivo:

General
Format : MPEG-4
Format profile : Base Media / Version 2
Codec ID : mp42
File size : 581 MiB
Duration : 2h 17mn
Overall bit rate mode : Variable
Overall bit rate : 589 Kbps
Writing application : HandBrake 6548svn 2014112401

Video
ID : 1
Format : AVC
Format/Info : Advanced Video Codec
Format profile : [email protected]
Format settings, CABAC : Yes
Format settings, ReFrames : 4 frames
Codec ID : avc1
Codec ID/Info : Advanced Video Coding
Duration : 2h 17mn
Bit rate : 426 Kbps
Width : 720 pixels
Height : 400 pixels
Display aspect ratio : 16:9
Frame rate mode : Variable
Frame rate : 29.970 fps
Minimum frame rate : 10.026 fps
Maximum frame rate : 29.980 fps
Color space : YUV
Chroma subsampling : 4:2:0
Bit depth : 8 bits
Scan type : Progressive
Bits/(Pixel*Frame) : 0.049
Stream size : 417 MiB (72%)
Writing library : x264 core 142 r2479 dd79a61
Encoding settings : cabac=1 / ref=1 / deblock=1:0:0 / analyse=0x1:0x111 / me=hex / subme=2 / psy=1 / psy_rd=1.00:0.00 / mixed_ref=0 / me_range=16 / chroma_me=1 / trellis=0 / 8x8dct=0 / cqm=0 / deadzone=21,11 / fast_pskip=1 / chroma_qp_offset=0 / threads=12 / lookahead_threads=3 / sliced_threads=0 / nr=0 / decimate=1 / interlaced=0 / bluray_compat=0 / constrained_intra=0 / bframes=3 / b_pyramid=2 / b_adapt=1 / b_bias=0 / direct=1 / weightb=1 / open_gop=0 / weightp=1 / keyint=300 / keyint_min=30 / scenecut=40 / intra_refresh=0 / rc_lookahead=10 / rc=abr / mbtree=1 / bitrate=426 / ratetol=1.0 / qcomp=0.60 / qpmin=0 / qpmax=69 / qpstep=4 / vbv_maxrate=20000 / vbv_bufsize=25000 / nal_hrd=none / filler=0 / ip_ratio=1.40 / aq=1:1.00
Color range : Limited
Color primaries : BT.601 NTSC
Transfer characteristics : BT.709
Matrix coefficients : BT.601

Audio
ID : 2
Format : AAC
Format/Info : Advanced Audio Codec
Format profile : LC
Codec ID : 40
Duration : 2h 17mn
Bit rate mode : Variable
Bit rate : 160 Kbps
Channel(s) : 2 channels
Channel positions : Front: L R
Sampling rate : 48.0 KHz
Compression mode : Lossy
Stream size : 158 MiB (27%)
Title : Stereo / Stereo



torrent
[Imagen: boton%2Bdownload.png]


Responder
Agradecido por:



Posibles temas similares...
Tema Autor Respuestas Vistas Último mensaje
Video Vivir De Noche HD1080p Lat-Cast-Ing 5.1 (2016) gokuzgt1 0 2 Hace 3 horas
Último mensaje: gokuzgt1
Video Vivir De Noche HD720p Lat-Cast-Ing 5.1 (2016) gokuzgt1 0 3 Hace 3 horas
Último mensaje: gokuzgt1
  Película Cars 3 [2017] [Audio Latino] [MKV] [Torrent] Paul Martin 0 21 Ayer, 12:53 AM
Último mensaje: Paul Martin
Video Sola Contra El Poder Full HD1080p Audio Ingles Subtitulada 5.1 (2016) gokuzgt1 0 16 06-21-2017, 03:03 AM
Último mensaje: gokuzgt1
Video Sola Contra El Poder HD720p Audio Ingles Subtitulada 5.1 (2016) gokuzgt1 0 16 06-21-2017, 02:58 AM
Último mensaje: gokuzgt1

Salto de foro:


HTML Comment Box is loading comments...